<?xml version="1.0" encoding="utf-8"?>
<!-- Generator: Adobe Illustrator 29.7.1, SVG Export Plug-In . SVG Version: 9.03 Build 0)  -->
<svg version="1.1" id="Layer_1" xmlns="http://www.w3.org/2000/svg" xmlns:xlink="http://www.w3.org/1999/xlink" x="0px" y="0px"
	 viewBox="0 0 3791 876.4" style="enable-background:new 0 0 3791 876.4;" xml:space="preserve">
<style type="text/css">
	.st0{stroke:#000000;stroke-miterlimit:10;}
	.st1{fill:#B6A67C;}
	.st2{fill:#D0C49D;}
	.st3{fill:#FFFFFF;}
	.st4{fill:#E3D02C;}
	.st5{fill:#75C043;}
	.st6{fill:#648F3D;}
	.st7{fill:#808285;}
	.st8{font-family:'Georgia';}
	.st9{font-size:243.3107px;}
	.st10{font-size:408.2166px;}
</style>
<font horiz-adv-x="2048">
<!-- Georgia is a trademark of the Microsoft group of companies. -->
<!-- Copyright: Copyright 2025 Adobe System Incorporated. All rights reserved. -->
<font-face font-family="Georgia" units-per-em="2048" underline-position="-181" underline-thickness="101"/>
<missing-glyph horiz-adv-x="2048" d="M256,0l0,1536l1536,0l0,-1536M384,128l1280,0l0,1280l-1280,0z"/>
<glyph unicode=" " horiz-adv-x="494"/>
<glyph unicode="!" horiz-adv-x="678" d="M472,1321C472,1288 461,1176 439,985C417,794 398,610 381,432l-78,0C288,610 270,794 249,985C227,1176 216,1288 216,1321C216,1359 228,1391 252,1417C276,1443 307,1456 344,1456C381,1456 412,1443 436,1418C460,1392 472,1360 472,1321M481,115C481,78 468,46 441,20C414,-7 381,-20 344,-20C307,-20 275,-7 248,20C221,46 207,78 207,115C207,152 221,185 248,212C275,239 307,252 344,252C381,252 414,239 441,212C468,185 481,152 481,115z"/>
<glyph unicode="&quot;" horiz-adv-x="843" d="M725,1417C725,1390 716,1339 699,1263C682,1187 662,1088 641,967l-62,0C564,1066 547,1160 528,1249C509,1338 499,1394 499,1417C499,1448 508,1474 527,1496C546,1518 574,1529 612,1529C649,1529 677,1518 696,1496C715,1474 725,1448 725,1417M343,1417C343,1390 334,1339 317,1263C300,1187 280,1088 259,967l-61,0C180,1080 162,1177 145,1258C127,1338 118,1391 118,1417C118,1448 127,1474 146,1496C165,1518 193,1529 231,1529C267,1529 295,1518 314,1496C333,1474 343,1448 343,1417z"/>
<glyph unicode="#" horiz-adv-x="1317" d="M1163,745l-249,0l-72,-251l261,0l0,-123l-296,0l-107,-371l-111,0l107,371l-217,0l-107,-371l-111,0l107,371l-214,0l0,123l249,0l73,251l-262,0l0,123l296,0l105,362l111,0l-105,-362l217,0l105,362l111,0l-105,-362l214,0M807,747l-222,0l-74,-255l221,0z"/>
<glyph unicode="$" horiz-adv-x="1249" d="M1018,580C1045,554 1066,524 1081,489C1096,454 1103,413 1103,365C1103,260 1063,173 983,102C903,31 802,-9 681,-17l0,-282l-82,0l0,280C467,-16 360,15 278,76C196,136 155,211 155,300C155,339 164,370 181,391C198,412 223,422 254,422C289,422 317,413 337,396C357,378 367,357 367,333C367,315 361,288 348,252C335,215 327,190 324,177C343,142 377,114 425,93C472,72 530,61 599,60l0,506C570,577 544,586 523,594C501,602 472,613 437,628C360,659 300,701 257,752C214,803 192,869 192,950C192,1046 232,1127 312,1193C392,1259 488,1293 599,1295l0,229l82,0l0,-229C747,1294 805,1284 856,1266C907,1248 948,1226 980,1199C1012,1172 1036,1143 1053,1111C1069,1079 1077,1048 1077,1018C1077,988 1070,963 1056,942C1042,921 1019,910 987,910C954,910 927,918 906,935C884,952 873,970 873,991C873,1016 876,1040 881,1065C886,1089 891,1110 895,1129C893,1133 886,1140 875,1151C864,1161 850,1170 835,1179C818,1188 796,1197 769,1204C742,1211 712,1215 681,1215l0,-464C707,742 729,734 747,727C764,720 786,711 812,701C853,685 891,668 926,649C961,630 991,607 1018,580M599,775l0,440C534,1215 480,1197 436,1160C392,1123 370,1078 370,1025C370,967 384,921 411,886C438,851 480,823 535,800C543,797 553,793 565,788C577,783 588,779 599,775M915,284C915,339 901,386 873,427C844,467 796,500 728,527C719,530 711,533 704,536C696,539 688,541 681,544l0,-483C759,66 818,88 857,128C896,167 915,219 915,284z"/>
<glyph unicode="%" horiz-adv-x="1674" d="M788,1083C788,966 756,875 693,810C630,745 548,713 448,713C348,713 267,745 204,810C141,875 109,966 109,1083C109,1194 140,1283 202,1351C263,1419 346,1453 449,1453C551,1453 633,1419 695,1351C757,1283 788,1194 788,1083M619,1083C619,1170 605,1241 576,1296C547,1351 505,1379 449,1379C392,1379 349,1351 321,1296C292,1241 278,1170 278,1083C278,994 292,923 321,869C350,814 392,787 448,787C504,787 547,814 576,869C605,923 619,994 619,1083M1565,338C1565,221 1533,130 1470,65C1407,0 1325,-32 1225,-32C1125,-32 1044,0 981,65C918,130 886,221 886,338C886,449 917,538 979,606C1040,674 1123,708 1226,708C1328,708 1410,674 1472,606C1534,538 1565,449 1565,338M1396,338C1396,425 1382,496 1353,551C1324,606 1282,634 1226,634C1169,634 1126,606 1098,551C1069,496 1055,425 1055,338C1055,249 1069,178 1098,124C1127,69 1169,42 1225,42C1281,42 1324,69 1353,124C1382,178 1396,249 1396,338M1499,1424l-1179,-1424l-138,0l1176,1424z"/>
<glyph unicode="&amp;" horiz-adv-x="1455" d="M1454,828C1415,825 1375,817 1335,805C1295,792 1264,773 1243,746C1229,730 1215,706 1201,675C1186,644 1169,607 1149,564C1129,521 1109,479 1088,438C1067,397 1041,355 1008,314C1035,282 1067,247 1106,210C1145,172 1178,145 1205,128C1232,113 1270,100 1319,89C1368,78 1408,72 1439,71l0,-71l-412,0l-149,170C856,146 831,121 803,96C774,70 744,48 713,29C678,9 644,-7 609,-18C574,-29 532,-35 485,-35C436,-35 387,-28 338,-13C289,1 245,24 205,55C166,86 135,125 111,173C87,221 75,278 75,345C75,428 97,503 141,570C184,637 266,708 385,783C331,854 289,916 259,968C229,1020 214,1078 214,1143C214,1189 223,1231 242,1270C260,1308 286,1341 319,1370C350,1396 387,1416 431,1431C475,1446 520,1453 565,1453C618,1453 665,1445 706,1428C746,1411 779,1388 804,1361C827,1336 845,1306 858,1273C870,1240 876,1206 876,1173C876,1093 851,1024 802,967C752,909 683,857 596,811C659,726 720,649 780,580C840,510 898,441 953,374C998,445 1032,513 1057,576C1082,639 1094,694 1094,742C1094,763 1079,780 1048,793C1017,805 974,817 919,828l0,71l535,0M747,1153C747,1221 732,1273 702,1310C672,1346 629,1364 574,1364C543,1364 517,1358 496,1345C475,1332 458,1316 443,1297C430,1278 420,1258 414,1237C408,1216 405,1197 405,1180C405,1134 417,1088 441,1041C465,994 502,937 553,870C622,909 671,951 702,996C732,1041 747,1093 747,1153M825,228C763,307 693,393 616,487C538,580 476,659 429,724C375,687 337,643 315,593C292,542 281,485 281,420C281,329 307,254 359,195C410,135 479,105 566,105C615,105 663,116 710,137C757,158 795,188 825,228z"/>
<glyph unicode="'" horiz-adv-x="441" d="M333,1417C333,1390 324,1339 307,1263C290,1187 270,1088 249,967l-61,0C170,1080 152,1177 135,1258C117,1338 108,1391 108,1417C108,1448 117,1474 136,1496C155,1518 183,1529 221,1529C257,1529 285,1518 304,1496C323,1474 333,1448 333,1417z"/>
<glyph unicode="(" horiz-adv-x="768" d="M701,-328C519,-305 376,-214 273,-53C169,108 117,324 117,596C117,873 169,1092 273,1254C376,1415 519,1508 701,1532l0,-83C573,1426 476,1344 409,1204C342,1064 309,861 309,594C309,340 342,143 407,2C472,-139 570,-222 701,-246z"/>
<glyph unicode=")" horiz-adv-x="768" d="M651,596C651,324 599,108 496,-53C392,-214 249,-305 67,-328l0,82C198,-222 296,-139 361,2C426,143 459,340 459,594C459,861 426,1064 359,1204C292,1344 195,1426 67,1449l0,83C249,1508 392,1415 496,1254C599,1092 651,873 651,596z"/>
<glyph unicode="*" horiz-adv-x="967" d="M882,1099C882,1074 875,1056 861,1045C847,1034 829,1028 807,1028C792,1028 757,1035 702,1050C646,1064 583,1075 514,1083C544,1042 572,1007 598,980C624,952 646,929 663,910C681,891 695,874 705,859C715,844 720,829 720,812C720,794 712,778 696,765C680,752 663,745 645,745C633,745 622,749 611,756C600,763 591,772 584,785C573,804 563,835 553,878C542,921 519,983 484,1066C452,987 430,924 417,878C404,831 393,800 384,785C375,772 367,762 358,755C349,748 337,745 323,745C304,745 287,751 272,764C256,777 248,793 248,812C248,828 253,843 262,857C271,871 286,889 305,910C322,927 344,951 372,981C399,1011 427,1045 454,1083C389,1076 328,1066 272,1051C215,1036 178,1028 161,1028C139,1028 121,1034 107,1045C93,1056 86,1074 86,1099C86,1122 93,1139 107,1152C121,1164 139,1170 161,1170C181,1170 216,1163 267,1149C317,1135 379,1124 454,1117C428,1152 401,1186 372,1218C343,1249 321,1273 305,1290C286,1310 272,1327 263,1342C253,1356 248,1371 248,1388C248,1406 256,1422 272,1435C288,1448 305,1455 323,1455C335,1455 346,1452 357,1445C367,1438 376,1428 384,1415C393,1399 406,1363 421,1308C436,1252 457,1194 484,1134C514,1202 536,1262 550,1313C563,1364 575,1398 584,1415C591,1428 600,1438 611,1445C621,1452 632,1455 645,1455C664,1455 681,1449 697,1436C712,1423 720,1407 720,1388C720,1361 702,1329 665,1292C628,1255 577,1197 514,1117C586,1125 649,1136 702,1150C755,1163 790,1170 807,1170C829,1170 847,1164 861,1152C875,1140 882,1122 882,1099z"/>
<glyph unicode="+" horiz-adv-x="1317" d="M1173,497l-451,0l0,-451l-127,0l0,451l-451,0l0,125l451,0l0,451l127,0l0,-451l451,0z"/>
<glyph unicode="," horiz-adv-x="552" d="M429,35C429,-13 418,-58 397,-101C375,-144 350,-180 322,-211C293,-243 263,-271 231,-296C199,-321 170,-340 143,-354l-46,67C129,-267 158,-247 183,-227C208,-207 229,-187 245,-167C265,-144 282,-118 296,-91C310,-64 319,-33 323,2l-51,0C227,2 193,14 168,37C143,60 130,92 130,131C130,159 141,186 164,213C187,239 218,252 257,252C314,252 357,233 386,195C415,156 429,103 429,35z"/>
<glyph unicode="-" horiz-adv-x="766" d="M681,465l-596,0l0,157l596,0z"/>
<glyph unicode="." horiz-adv-x="552" d="M415,115C415,78 402,46 375,20C348,-7 315,-20 278,-20C241,-20 209,-7 182,20C155,46 141,78 141,115C141,152 155,185 182,212C209,239 241,252 278,252C315,252 348,239 375,212C402,185 415,152 415,115z"/>
<glyph unicode="/" horiz-adv-x="960" d="M870,1523l-691,-1947l-130,0l689,1947z"/>
<glyph unicode="0" horiz-adv-x="1257" d="M1027,934C1070,883 1102,823 1123,754C1144,685 1154,612 1154,537C1154,446 1141,365 1115,294C1089,222 1053,162 1008,115C961,66 906,30 842,5C778,-20 707,-32 628,-32C542,-32 465,-18 398,11C331,40 276,79 234,129C190,181 157,242 136,312C114,381 103,456 103,537C103,616 114,689 135,756C156,823 188,883 233,937C276,989 331,1030 398,1060C465,1090 542,1105 629,1105C720,1105 799,1090 864,1059C929,1028 984,987 1027,934M933,537C933,696 906,819 852,906C797,993 723,1037 630,1037C535,1037 461,993 406,906C351,819 324,696 324,537C324,386 350,265 403,174C455,82 530,36 628,36C726,36 801,82 854,174C907,265 933,386 933,537z"/>
<glyph unicode="1" horiz-adv-x="880" d="M809,0l-674,0l0,71C155,72 186,75 229,80C271,84 300,88 316,93C337,100 353,111 364,126C375,141 380,163 380,193l0,702l-249,0l0,84l55,0C258,979 323,992 380,1019C437,1046 477,1074 502,1105l83,0C583,1062 581,1011 579,953C577,895 576,843 576,797l0,-593C576,181 581,160 592,142C602,123 617,110 636,101C653,94 682,87 721,81C760,75 790,72 809,71z"/>
<glyph unicode="2" horiz-adv-x="1144" d="M1047,0l-937,0l0,136C128,157 153,180 185,206C217,231 255,259 299,289C326,307 358,327 395,348C432,369 475,393 522,418C575,446 615,471 644,492C672,513 698,540 721,571C736,592 749,618 758,649C767,680 772,724 772,781C772,864 750,926 705,965C660,1004 603,1023 533,1023C490,1023 449,1015 410,998C371,981 342,957 323,927C328,906 334,880 341,851C348,822 351,793 351,765C351,740 341,717 320,698C299,678 267,668 226,668C193,668 167,680 149,703C131,726 122,756 122,795C122,831 132,867 152,904C172,940 201,973 238,1004C275,1034 320,1058 374,1077C428,1096 486,1105 549,1105C686,1105 794,1075 875,1014C955,953 995,871 995,769C995,720 988,676 974,636C959,596 936,561 904,530C869,496 827,467 780,443C733,418 660,384 563,341C505,315 451,288 401,260C351,231 310,204 278,177l769,0z"/>
<glyph unicode="3" horiz-adv-x="1130" d="M487,-365C424,-365 367,-357 315,-341C263,-326 218,-305 181,-278C144,-251 115,-221 95,-186C74,-151 64,-116 64,-79C64,-46 72,-17 88,10C104,36 130,49 165,49C205,49 236,39 257,20C278,0 288,-23 288,-48C288,-69 285,-96 278,-129C271,-162 265,-185 261,-199C266,-205 274,-213 287,-223C299,-233 314,-242 332,-250C353,-260 376,-268 399,-274C422,-280 455,-283 498,-283C538,-283 577,-276 614,-263C651,-250 683,-228 711,-199C740,-168 763,-132 780,-91C796,-50 804,3 804,70C804,106 800,142 793,177C785,212 771,243 750,269C729,295 701,315 666,330C630,344 585,351 530,351l-131,0l0,115l87,0C578,466 644,491 685,542C726,593 746,669 746,771C746,854 726,917 687,960C648,1002 592,1023 520,1023C485,1023 457,1019 435,1011C412,1002 394,994 380,986C363,977 350,966 339,955C328,944 320,935 315,930C320,909 325,883 332,852C339,821 342,791 342,763C342,738 332,716 311,697C290,677 259,667 218,667C183,667 157,680 141,705C124,730 116,760 116,793C116,828 126,863 145,899C164,935 193,969 231,1000C269,1031 315,1057 370,1076C425,1095 488,1105 559,1105C641,1105 709,1093 763,1069C816,1044 858,1015 889,980C919,946 940,910 951,873C962,836 968,804 968,777C968,744 963,710 954,677C945,643 929,612 908,583C885,552 854,523 816,498C777,472 729,451 671,435l0,-16C708,416 748,407 791,394C833,381 871,361 905,335C940,308 969,273 992,230C1015,187 1026,132 1026,66C1026,-62 975,-166 872,-245C769,-325 641,-365 487,-365z"/>
<glyph unicode="4" horiz-adv-x="1157" d="M1084,90l-203,0l0,-455l-192,0l0,455l-640,0l0,154l701,855l131,0l0,-878l203,0M689,221l0,655l-540,-655z"/>
<glyph unicode="5" horiz-adv-x="1082" d="M843,469C887,434 924,390 953,335C982,280 996,212 996,130C996,-13 947,-132 849,-225C751,-318 627,-365 476,-365C359,-365 261,-337 180,-282C99,-227 59,-162 59,-89C59,-55 67,-25 84,0C101,25 126,38 161,38C201,38 232,28 253,7C274,-14 284,-37 284,-62C284,-83 280,-110 273,-142C266,-174 260,-198 256,-213C261,-218 270,-224 282,-232C294,-240 308,-248 325,-255C342,-262 364,-269 389,-274C414,-280 443,-283 476,-283C519,-283 559,-274 597,-257C635,-240 667,-214 693,-180C722,-143 743,-100 758,-52C772,-5 779,56 779,129C779,223 753,301 701,363C648,424 579,455 494,455C441,455 391,445 345,425C298,405 257,372 220,325l-67,26l85,722l716,0l0,-178l-635,0l-52,-424C297,492 337,514 386,535C435,556 488,566 547,566C596,566 646,559 699,544C751,529 799,504 843,469z"/>
<glyph unicode="6" horiz-adv-x="1159" d="M1075,461C1075,392 1063,327 1038,266C1013,205 979,154 937,111C888,62 835,26 776,3C717,-20 655,-32 591,-32C517,-32 450,-18 390,9C330,36 279,75 237,125C194,176 161,238 138,311C115,384 103,467 103,558C103,796 174,997 316,1160C457,1323 647,1421 885,1454l18,-90l-90,-16C668,1301 557,1229 478,1130C399,1031 347,912 324,771C381,821 438,856 494,877C550,898 609,908 671,908C782,908 878,865 957,780C1036,695 1075,588 1075,461M858,434C858,542 833,629 784,694C734,759 667,792 584,792C534,792 488,783 445,764C402,745 360,714 320,670C319,662 318,644 317,615C316,586 315,563 315,546C315,390 341,268 392,180C443,91 510,47 593,47C672,47 736,82 785,151C834,220 858,314 858,434z"/>
<glyph unicode="7" horiz-adv-x="1029" d="M1029,1008l-713,-1373l-125,0l671,1270l-393,0C411,905 366,904 333,903C300,902 270,895 243,884C222,875 204,853 188,818C171,782 159,736 150,681l-61,0l0,392l940,0z"/>
<glyph unicode="8" horiz-adv-x="1221" d="M1117,376C1117,264 1069,168 972,87C875,6 748,-34 591,-34C444,-34 326,3 237,77C148,151 104,246 104,363C104,449 130,521 183,579C235,636 312,685 415,725C330,772 267,824 225,881C183,938 162,1002 162,1073C162,1182 208,1273 301,1346C393,1419 503,1456 632,1456C761,1456 865,1421 945,1352C1024,1283 1064,1196 1064,1091C1064,1024 1042,960 998,900C954,839 889,790 804,751C915,704 995,651 1044,594C1093,537 1117,464 1117,376M875,1102C875,1183 851,1250 803,1301C754,1352 692,1377 617,1377C542,1377 480,1353 432,1304C384,1255 360,1194 360,1121C360,1051 387,992 442,943C497,894 594,842 734,787C784,819 820,861 842,914C864,967 875,1029 875,1102M917,329C917,371 908,408 890,440C872,471 846,500 812,526C779,551 734,578 676,606C617,633 554,661 486,690C422,655 375,611 345,558C315,504 300,443 300,374C300,276 329,197 387,137C444,76 521,46 617,46C709,46 782,73 836,126C890,179 917,247 917,329z"/>
<glyph unicode="9" horiz-adv-x="1159" d="M1056,516C1056,400 1038,291 1001,189C964,86 912,-4 843,-81C776,-157 694,-220 597,-270C500,-321 391,-354 271,-370l-18,90l90,16C486,-219 598,-149 679,-55C760,39 812,158 835,303C780,256 726,222 672,201C617,179 556,168 488,168C379,168 285,210 205,295C124,380 84,486 84,615C84,753 131,869 224,964C317,1059 431,1106 568,1106C717,1106 835,1053 924,947C1012,841 1056,697 1056,516M844,528C844,684 819,806 768,895C717,983 649,1027 566,1027C487,1027 423,993 374,925C325,856 301,762 301,642C301,534 326,447 376,382C425,317 492,284 575,284C627,284 675,294 718,313C761,332 802,362 839,404C839,407 840,412 841,420C842,428 842,439 842,454C842,463 842,475 843,488C844,501 844,515 844,528z"/>
<glyph unicode=":" horiz-adv-x="640" d="M457,853C457,816 444,784 417,757C390,730 357,717 320,717C283,717 251,730 224,757C197,784 183,816 183,853C183,890 196,923 223,950C250,977 282,990 320,990C358,990 390,977 417,950C444,923 457,890 457,853M457,115C457,78 444,46 417,20C390,-7 357,-20 320,-20C283,-20 251,-7 224,20C197,46 183,78 183,115C183,152 197,185 224,212C251,239 283,252 320,252C357,252 390,239 417,212C444,185 457,152 457,115z"/>
<glyph unicode=";" horiz-adv-x="640" d="M457,853C457,816 444,784 417,757C390,730 357,717 320,717C283,717 251,730 224,757C197,784 183,816 183,853C183,890 196,923 223,950C250,977 282,990 320,990C358,990 390,977 417,950C444,923 457,890 457,853M474,35C474,-13 463,-58 442,-100C420,-143 395,-180 367,-211C338,-243 308,-271 276,-296C244,-321 215,-340 188,-354l-46,67C174,-267 203,-247 228,-226C253,-206 273,-186 290,-167C310,-144 327,-118 341,-91C355,-64 364,-33 368,2l-51,0C272,2 238,14 213,37C188,60 175,92 175,131C175,159 186,186 209,213C232,239 263,252 302,252C359,252 402,233 431,195C460,156 474,103 474,35z"/>
<glyph unicode="&lt;" horiz-adv-x="1317" d="M1118,22l-925,481l0,113l925,481l0,-137l-769,-400l769,-401z"/>
<glyph unicode="=" horiz-adv-x="1317" d="M1163,683l-1009,0l0,125l1009,0M1163,311l-1009,0l0,125l1009,0z"/>
<glyph unicode="&gt;" horiz-adv-x="1317" d="M1124,503l-925,-481l0,137l769,401l-769,400l0,137l925,-481z"/>
<glyph unicode="?" horiz-adv-x="980" d="M771,1329C808,1290 835,1247 853,1199C870,1150 879,1098 879,1041C879,918 840,817 761,739C682,661 574,614 437,598l0,-221l-92,0l0,379C387,759 429,766 470,777C511,787 548,804 581,827C615,852 642,882 661,917C680,952 689,1000 689,1063C689,1163 668,1240 626,1293C583,1346 521,1373 440,1373C409,1373 383,1369 360,1360C337,1351 320,1342 309,1334C312,1318 317,1295 323,1265C328,1235 331,1212 331,1196C331,1171 320,1149 299,1129C278,1108 247,1098 206,1098C170,1098 144,1110 129,1135C114,1160 106,1188 106,1221C106,1248 113,1274 128,1300C143,1325 166,1350 197,1374C224,1395 260,1414 306,1429C351,1444 399,1452 448,1452C519,1452 581,1441 636,1419C691,1396 736,1366 771,1329M531,115C531,78 518,46 491,20C464,-7 431,-20 394,-20C357,-20 325,-7 298,20C271,46 257,78 257,115C257,152 271,185 298,212C325,239 357,252 394,252C431,252 464,239 491,212C518,185 531,152 531,115z"/>
<glyph unicode="@" horiz-adv-x="1902" d="M1530,-119C1463,-177 1384,-224 1293,-259C1201,-295 1099,-313 986,-313C885,-313 786,-297 689,-264C592,-232 504,-183 426,-117C349,-51 286,31 239,130C192,228 168,344 168,477C168,591 189,702 232,809C275,916 336,1012 415,1096C492,1178 587,1244 700,1295C813,1345 936,1370 1069,1370C1184,1370 1284,1352 1369,1315C1454,1278 1523,1229 1577,1168C1631,1108 1672,1039 1699,961C1726,883 1739,802 1739,717C1739,554 1694,417 1605,305C1516,192 1403,136 1266,136C1209,136 1161,150 1122,179C1083,207 1061,247 1056,298l-7,2C1017,251 981,213 940,184C899,155 857,140 815,140C788,140 760,145 732,154C703,163 678,177 656,198C634,220 617,249 604,284C591,319 584,363 584,415C584,464 595,518 618,579C640,639 670,696 708,751C746,806 795,854 856,895C916,936 981,956 1051,956C1088,956 1122,946 1151,925C1180,904 1197,873 1204,832l6,0l43,112l149,0l-189,-538C1207,389 1202,370 1199,349C1195,327 1193,310 1193,297C1193,263 1202,238 1219,223C1236,207 1259,199 1286,199C1389,199 1476,248 1545,345C1614,442 1649,569 1649,728C1649,807 1637,880 1612,947C1587,1014 1550,1073 1499,1124C1450,1175 1389,1215 1315,1244C1241,1273 1156,1288 1061,1288C970,1288 882,1270 796,1235C710,1200 632,1148 561,1079C492,1012 437,929 394,830C351,731 330,618 330,493C330,372 347,266 380,175C413,83 460,6 521,-56C580,-116 650,-161 731,-191C812,-221 899,-236 993,-236C1099,-236 1193,-222 1276,-193C1359,-164 1433,-123 1499,-68M1182,742C1173,796 1158,835 1137,860C1116,885 1086,897 1046,897C1003,897 964,880 929,846C893,811 863,770 838,723C812,674 792,620 778,562C763,503 756,449 756,400C756,343 763,300 777,270C790,239 813,224 844,224C889,224 930,240 966,271C1002,302 1036,347 1067,404z"/>
<glyph unicode="A" horiz-adv-x="1374" d="M1421,0l-591,0l0,71C882,74 925,81 960,91C994,101 1011,113 1011,128C1011,134 1010,141 1009,150C1008,159 1006,166 1003,173l-118,318l-497,0C369,444 354,404 343,369C331,334 320,302 311,273C302,244 296,221 293,203C290,185 288,170 288,159C288,132 309,112 351,97C393,82 440,74 493,71l0,-71l-534,0l0,71C-24,72 -2,76 24,83C50,89 71,97 88,108C115,126 135,145 150,165C165,184 179,211 193,246C264,424 343,624 429,846C515,1068 592,1266 659,1439l80,0l473,-1224C1222,189 1233,168 1246,152C1259,136 1276,120 1299,105C1314,96 1334,88 1359,82C1384,75 1404,72 1421,71M849,580l-215,550l-211,-550z"/>
<glyph unicode="B" horiz-adv-x="1339" d="M1104,661C1145,633 1180,596 1207,551C1234,506 1248,451 1248,386C1248,320 1234,263 1205,214C1176,165 1139,125 1093,94C1048,63 998,40 942,24C885,8 827,0 767,0l-672,0l0,71C111,72 134,75 165,80C196,84 218,89 231,95C252,104 266,117 275,133C284,148 288,168 288,193l0,1020C288,1236 284,1256 277,1273C269,1290 254,1304 231,1315C211,1325 189,1333 164,1338C139,1343 119,1347 102,1348l0,71l655,0C808,1419 856,1414 903,1404C949,1394 993,1376 1035,1351C1074,1328 1107,1296 1132,1256C1157,1216 1170,1167 1170,1110C1170,1060 1161,1016 1143,977C1125,938 1100,904 1067,876C1036,849 1001,827 962,809C922,790 879,776 833,766l0,-9C874,752 919,742 970,727C1020,711 1065,689 1104,661M863,875C888,904 905,935 915,969C924,1003 929,1043 929,1090C929,1168 908,1229 865,1274C822,1318 755,1340 663,1340C642,1340 615,1340 583,1339C550,1338 523,1337 501,1336l0,-545l127,0C683,791 730,798 769,812C808,826 839,847 863,875M1001,422C1001,506 973,575 917,629C860,683 780,710 675,710C632,710 596,710 567,709C538,708 516,707 501,706l0,-500C501,164 518,132 552,111C586,90 633,79 694,79C793,79 869,108 922,166C975,224 1001,309 1001,422z"/>
<glyph unicode="C" horiz-adv-x="1315" d="M723,-33C638,-33 557,-16 480,17C402,50 333,98 273,161C214,224 166,300 131,391C96,481 78,583 78,696C78,809 95,912 130,1005C165,1097 213,1176 274,1243C335,1309 406,1360 489,1396C572,1432 660,1450 754,1450C824,1450 887,1441 944,1424C1001,1407 1055,1382 1106,1351l41,68l80,0l9,-506l-82,0C1143,962 1127,1016 1106,1074C1085,1131 1060,1180 1031,1220C999,1265 961,1301 917,1327C873,1352 823,1365 766,1365C701,1365 641,1351 586,1322C530,1293 482,1251 441,1195C402,1141 372,1072 350,989C328,906 317,813 317,710C317,619 329,536 352,461C375,385 407,318 450,261C493,204 543,160 602,128C660,96 725,80 797,80C851,80 901,89 946,106C991,123 1031,145 1064,173C1097,202 1127,236 1152,273C1177,310 1198,351 1214,395l75,-36C1232,218 1156,118 1061,58C966,-3 854,-33 723,-33z"/>
<glyph unicode="D" horiz-adv-x="1534" d="M1457,701C1457,580 1434,476 1389,387C1344,298 1285,226 1212,169C1139,112 1056,70 965,42C874,14 779,0 682,0l-588,0l0,71C113,71 139,73 170,77C201,80 221,84 231,89C251,98 266,111 275,128C284,145 288,165 288,189l0,1024C288,1236 284,1256 277,1274C269,1292 254,1306 231,1317C210,1327 188,1334 164,1339C140,1344 119,1347 102,1348l0,71l620,0C807,1419 891,1406 974,1380C1057,1353 1129,1318 1190,1273C1273,1214 1339,1136 1386,1040C1433,944 1457,831 1457,701M1212,702C1212,797 1199,884 1174,961C1149,1038 1112,1105 1063,1162C1017,1217 961,1260 894,1291C827,1322 752,1338 670,1338C643,1338 612,1338 578,1337C543,1336 518,1335 501,1334l0,-1091C501,182 519,140 554,117C589,94 644,82 717,82C802,82 876,97 939,127C1002,157 1054,199 1093,252C1134,308 1165,373 1184,447C1203,520 1212,605 1212,702z"/>
<glyph unicode="E" horiz-adv-x="1338" d="M1291,418l-27,-418l-1178,0l0,71C106,72 133,75 166,80C199,84 221,88 231,93C252,103 267,116 276,132C284,148 288,168 288,193l0,1020C288,1235 284,1255 277,1272C270,1289 254,1302 231,1313C213,1322 189,1329 159,1336C128,1343 104,1347 86,1348l0,71l1098,0l0,-342l-75,0C1096,1128 1067,1182 1023,1239C978,1296 936,1327 896,1332C875,1335 851,1337 822,1338C793,1339 761,1340 724,1340l-223,0l0,-564l160,0C712,776 750,781 774,791C797,800 818,816 836,839C851,858 863,884 874,917C884,949 891,979 894,1008l75,0l0,-555l-75,0C891,485 884,519 873,555C861,590 849,616 836,632C815,658 792,675 766,683C739,691 704,695 661,695l-160,0l0,-426C501,226 504,193 510,168C516,143 528,125 545,112C562,99 586,91 616,88C646,84 689,82 744,82C766,82 795,82 831,82C867,82 897,83 922,86C947,89 974,94 1001,101C1028,108 1047,117 1058,129C1089,161 1121,210 1155,275C1188,340 1210,387 1219,418z"/>
<glyph unicode="F" horiz-adv-x="1227" d="M1199,1064l-75,0C1110,1117 1081,1173 1037,1233C992,1293 950,1326 909,1332C888,1335 864,1337 836,1338C807,1339 775,1340 739,1340l-238,0l0,-570l163,0C713,770 752,775 779,786C806,796 830,812 849,833C862,848 875,871 886,902C897,933 904,966 907,1001l76,0l0,-557l-76,0C905,473 898,507 887,544C875,581 862,608 849,625C829,650 804,667 774,676C743,685 707,689 664,689l-163,0l0,-489C501,178 505,158 514,141C523,124 538,110 560,99C570,94 592,89 625,82C658,75 684,72 701,71l0,-71l-615,0l0,71C106,72 133,75 166,78C199,81 221,84 231,89C251,98 266,111 275,128C284,145 288,165 288,189l0,1024C288,1235 284,1255 277,1272C270,1289 254,1302 231,1313C213,1322 189,1329 159,1336C128,1343 104,1347 86,1348l0,71l1113,0z"/>
<glyph unicode="G" horiz-adv-x="1485" d="M1471,567C1455,565 1434,562 1407,558C1380,553 1358,547 1341,539C1321,529 1307,515 1299,497C1290,478 1286,457 1286,432l0,-110C1286,242 1287,188 1288,160C1289,132 1290,109 1291,91C1202,51 1114,20 1026,-1C938,-22 852,-33 767,-33C676,-33 589,-16 505,18C421,52 348,100 285,163C222,226 171,303 134,394C97,485 78,586 78,698C78,806 96,906 132,999C167,1091 218,1171 283,1239C346,1306 422,1358 510,1395C597,1432 691,1450 791,1450C871,1450 941,1440 1000,1421C1059,1402 1112,1378 1157,1351l41,68l80,0l9,-496l-82,0C1191,978 1174,1032 1153,1085C1132,1138 1106,1185 1073,1227C1040,1269 1001,1303 954,1328C907,1353 850,1365 785,1365C714,1365 650,1351 594,1322C538,1293 489,1249 448,1192C407,1137 376,1068 354,985C332,902 321,810 321,708C321,618 332,533 354,454C375,374 407,305 448,247C489,188 541,141 603,107C665,73 735,56 814,56C873,56 926,65 975,83C1023,101 1057,120 1077,140C1082,175 1085,210 1086,245C1086,280 1086,310 1086,335l0,78C1086,441 1082,466 1075,488C1067,509 1051,525 1027,535C1005,545 975,553 938,558C900,563 870,566 849,567l0,73l622,0z"/>
<glyph unicode="H" horiz-adv-x="1669" d="M1567,0l-589,0l0,71C994,72 1017,74 1048,77C1078,80 1099,84 1110,89C1130,97 1145,109 1154,126C1163,142 1168,163 1168,189l0,505l-667,0l0,-494C501,177 505,157 513,141C520,125 535,111 558,99C569,93 590,87 619,81C648,75 670,72 687,71l0,-71l-589,0l0,71C114,72 137,74 168,77C198,80 219,84 230,89C250,97 265,109 274,126C283,142 288,163 288,189l0,1024C288,1234 284,1254 275,1272C266,1289 251,1303 230,1313C212,1322 190,1329 165,1336C139,1343 117,1347 98,1348l0,71l589,0l0,-71C668,1347 646,1344 619,1339C592,1334 571,1329 558,1324C535,1316 520,1303 513,1284C505,1265 501,1245 501,1223l0,-440l667,0l0,430C1168,1234 1164,1254 1155,1272C1146,1289 1131,1303 1110,1313C1092,1322 1070,1329 1045,1336C1019,1343 997,1347 978,1348l0,71l589,0l0,-71C1548,1347 1526,1344 1499,1339C1472,1334 1451,1329 1438,1324C1415,1316 1400,1303 1393,1284C1385,1265 1381,1245 1381,1223l0,-1023C1381,177 1385,157 1393,141C1400,125 1415,111 1438,99C1449,93 1470,87 1499,81C1528,75 1550,72 1567,71z"/>
<glyph unicode="I" horiz-adv-x="798" d="M718,0l-639,0l0,71C97,72 123,74 157,77C191,80 215,84 229,89C251,98 267,110 277,125C287,140 292,160 292,187l0,1028C292,1238 288,1258 281,1274C274,1289 256,1302 229,1313C209,1321 184,1329 154,1336C123,1343 98,1347 79,1348l0,71l639,0l0,-71C697,1347 673,1345 644,1341C615,1336 590,1331 569,1324C544,1316 527,1303 518,1285C509,1267 505,1247 505,1225l0,-1027C505,176 510,157 520,140C529,123 546,109 569,99C583,94 606,88 638,82C669,75 696,72 718,71z"/>
<glyph unicode="J" horiz-adv-x="1060" d="M1006,1348C987,1347 964,1345 937,1341C909,1336 885,1331 866,1324C843,1316 828,1303 820,1284C812,1265 808,1245 808,1223l0,-841C808,338 799,291 782,242C764,193 738,149 704,110C665,65 618,29 564,4C509,-21 447,-34 377,-34C268,-34 180,-3 113,58C45,119 11,201 11,304C11,349 23,390 46,425C69,460 103,477 148,477C188,477 220,466 245,444C269,421 281,392 281,355C281,334 277,312 268,291C259,270 250,251 239,234C229,219 218,201 205,180C192,159 183,141 178,124C192,102 214,83 244,66C273,49 313,41 363,41C412,41 452,52 483,75C514,97 537,127 552,164C567,199 577,241 584,292C590,343 593,399 593,462l0,751C593,1236 589,1256 582,1272C574,1287 558,1301 534,1313C513,1324 488,1332 457,1338C426,1343 400,1347 380,1348l0,71l626,0z"/>
<glyph unicode="K" horiz-adv-x="1422" d="M1475,0l-398,0C1000,119 915,237 822,354C728,471 630,584 527,694l-26,0l0,-494C501,178 505,158 514,141C522,124 537,110 559,99C570,94 590,89 619,82C648,75 672,72 691,71l0,-71l-589,0l0,71C117,72 140,74 169,77C198,80 219,84 231,89C251,98 266,111 275,128C284,145 288,165 288,189l0,1024C288,1236 284,1255 277,1272C269,1289 254,1302 231,1313C213,1322 192,1329 167,1336C142,1343 121,1347 102,1348l0,71l589,0l0,-71C672,1347 649,1344 621,1339C593,1334 572,1329 559,1324C536,1316 521,1303 513,1284C505,1265 501,1245 501,1223l0,-490l20,0C581,784 640,837 698,892C756,947 809,1001 856,1056C909,1117 947,1165 972,1202C996,1238 1008,1270 1008,1298C1008,1308 1002,1316 990,1323C977,1329 963,1334 947,1338C928,1342 912,1345 897,1346C882,1347 870,1347 861,1348l0,71l532,0l0,-71C1391,1348 1387,1348 1380,1347C1373,1346 1366,1346 1357,1345C1348,1344 1338,1343 1329,1341C1320,1339 1308,1337 1293,1334C1270,1329 1246,1320 1221,1309C1196,1297 1175,1282 1159,1265C1090,1187 1019,1106 944,1023C869,940 795,864 722,795C823,680 907,582 974,499C1040,416 1110,328 1185,234C1214,198 1242,169 1271,148C1300,126 1324,110 1345,99C1362,90 1384,84 1410,79C1436,74 1458,72 1475,71z"/>
<glyph unicode="L" horiz-adv-x="1236" d="M1237,422l-30,-422l-1109,0l0,71C114,72 137,75 168,78C198,81 219,86 231,91C251,100 266,112 275,129C284,146 288,167 288,193l0,1016C288,1232 284,1252 277,1269C269,1286 254,1300 231,1311C216,1319 194,1327 167,1335C139,1342 116,1347 98,1348l0,71l599,0l0,-71C678,1347 654,1344 625,1338C595,1332 573,1327 560,1322C537,1314 522,1300 514,1281C505,1262 501,1241 501,1219l0,-953C501,222 503,188 508,164C512,139 522,120 538,107C553,95 576,87 607,84C637,80 679,78 734,78C759,78 784,79 811,80C838,81 863,84 887,88C910,92 932,98 952,105C971,112 986,120 995,131C1022,162 1054,208 1091,271C1127,333 1152,383 1166,422z"/>
<glyph unicode="M" horiz-adv-x="1899" d="M1806,0l-627,0l0,71C1202,72 1231,74 1267,78C1302,82 1327,88 1340,95C1361,108 1376,122 1386,139C1395,155 1400,175 1400,200l0,1032l-15,0l-484,-1209l-50,0l-461,1234l-13,0l0,-847C377,328 382,266 393,223C403,180 419,150 440,131C455,117 485,104 531,91C577,78 607,72 621,71l0,-71l-573,0l0,71C78,74 110,79 143,86C176,93 201,104 219,119C242,138 258,166 267,205C276,244 280,308 280,399l0,726C280,1167 275,1201 265,1228C255,1255 241,1276 222,1293C201,1311 176,1324 146,1333C116,1342 86,1347 57,1348l0,71l484,0l406,-1064l347,890C1307,1278 1318,1312 1327,1348C1336,1383 1340,1407 1341,1419l463,0l0,-71C1785,1347 1762,1344 1733,1339C1704,1334 1682,1329 1669,1324C1646,1316 1631,1303 1623,1284C1615,1265 1611,1245 1611,1223l0,-1023C1611,177 1615,157 1623,141C1631,125 1646,111 1669,99C1681,92 1702,86 1733,81C1764,75 1788,72 1806,71z"/>
<glyph unicode="N" horiz-adv-x="1571" d="M1554,1348C1535,1347 1507,1342 1468,1332C1429,1322 1402,1312 1385,1301C1361,1284 1345,1252 1337,1205C1328,1158 1324,1098 1324,1025l0,-1039l-87,0l-860,1161l0,-732C377,333 382,270 393,226C403,182 419,151 440,132C455,117 487,104 535,91C583,78 615,72 630,71l0,-71l-582,0l0,71C66,72 96,79 139,91C182,102 208,113 219,122C242,141 258,169 267,208C276,246 280,311 280,404l0,699C280,1134 275,1164 264,1195C253,1226 239,1249 221,1266C197,1288 165,1307 124,1323C83,1338 49,1347 24,1348l0,71l405,0l798,-1082l0,675C1227,1095 1222,1158 1211,1203C1200,1247 1185,1276 1165,1291C1146,1304 1116,1316 1074,1328C1031,1340 999,1347 977,1348l0,71l577,0z"/>
<glyph unicode="O" horiz-adv-x="1524" d="M1244,1251C1307,1186 1356,1107 1391,1015C1426,922 1444,820 1444,708C1444,595 1426,493 1390,401C1354,309 1304,231 1240,166C1178,102 1106,53 1024,18C942,-17 855,-34 762,-34C663,-34 572,-15 489,22C405,59 333,110 273,176C213,241 166,319 132,412C97,504 80,603 80,708C80,823 98,926 134,1017C170,1107 220,1185 283,1251C346,1316 419,1366 502,1401C585,1436 671,1453 762,1453C856,1453 945,1435 1028,1400C1111,1365 1183,1315 1244,1251M1095,245C1132,306 1160,374 1177,451C1194,528 1202,613 1202,708C1202,805 1193,895 1174,976C1155,1057 1127,1127 1090,1184C1053,1241 1007,1285 952,1317C897,1348 833,1364 762,1364C682,1364 614,1346 558,1309C502,1272 456,1223 421,1162C388,1103 363,1035 347,956C330,877 322,795 322,708C322,612 331,525 348,448C365,371 393,302 430,242C466,183 511,138 566,105C621,72 686,55 762,55C833,55 898,72 955,105C1012,138 1059,185 1095,245z"/>
<glyph unicode="P" horiz-adv-x="1249" d="M1184,1069C1184,995 1170,930 1141,873C1112,816 1071,768 1020,731C969,694 914,666 853,649C792,632 728,623 660,623l-159,0l0,-430C501,170 505,149 513,132C520,114 536,100 560,91C572,86 593,82 624,78C654,74 682,72 707,71l0,-71l-609,0l0,71C114,72 137,75 168,78C198,81 219,86 231,91C251,100 266,112 275,129C284,146 288,167 288,193l0,1024C288,1240 285,1261 278,1280C271,1299 256,1313 231,1322C206,1331 181,1337 156,1341C131,1344 109,1347 91,1348l0,71l648,0C871,1419 978,1387 1061,1324C1143,1260 1184,1175 1184,1069M880,827C903,859 918,892 925,927C932,961 936,992 936,1019C936,1057 932,1096 923,1135C914,1174 898,1209 876,1238C853,1269 822,1294 784,1311C746,1328 699,1337 642,1337l-141,0l0,-627l102,0C675,710 734,721 779,744C824,766 857,794 880,827z"/>
<glyph unicode="Q" horiz-adv-x="1524" d="M1244,1251C1307,1186 1356,1107 1391,1015C1426,922 1444,820 1444,708C1444,619 1432,536 1409,460C1386,384 1353,316 1310,256C1269,199 1221,149 1165,106C1109,63 1046,30 977,5C978,-68 1005,-134 1056,-192C1107,-251 1163,-280 1222,-280C1277,-280 1318,-278 1347,-274C1376,-271 1399,-267 1418,-264l0,-79C1388,-352 1351,-361 1306,-370C1261,-380 1198,-385 1118,-385C1073,-385 1030,-378 987,-365C944,-352 906,-332 871,-303C836,-274 808,-238 785,-194C762,-150 747,-96 740,-32C645,-29 556,-8 475,30C394,67 324,119 266,184C207,250 162,328 129,417C96,506 80,603 80,708C80,823 98,926 134,1017C170,1107 220,1185 283,1251C346,1316 419,1366 502,1401C585,1436 671,1453 762,1453C856,1453 945,1435 1028,1400C1111,1365 1183,1315 1244,1251M1095,245C1132,306 1160,374 1177,451C1194,528 1202,613 1202,708C1202,805 1193,895 1174,976C1155,1057 1127,1127 1090,1184C1053,1241 1007,1285 952,1317C897,1348 833,1364 762,1364C682,1364 614,1346 558,1309C502,1272 456,1223 421,1162C388,1103 363,1035 347,956C330,877 322,795 322,708C322,612 331,525 348,448C365,371 393,302 430,242C466,183 511,138 566,105C621,72 686,55 762,55C833,55 898,72 955,105C1012,138 1059,185 1095,245z"/>
<glyph unicode="R" horiz-adv-x="1437" d="M1480,0l-382,0C1013,133 937,247 869,344C800,441 726,540 646,643l-145,0l0,-450C501,170 505,149 512,132C519,114 535,100 559,91C571,86 592,82 622,78C652,74 677,72 698,71l0,-71l-600,0l0,71C114,72 137,75 168,78C198,81 219,86 231,91C251,100 266,112 275,129C284,146 288,167 288,193l0,1026C288,1242 285,1263 278,1281C271,1299 256,1313 231,1322C214,1328 193,1334 166,1339C139,1344 117,1347 98,1348l0,71l655,0C813,1419 869,1413 922,1401C975,1388 1022,1368 1065,1341C1106,1314 1139,1280 1164,1237C1189,1194 1201,1142 1201,1081C1201,1026 1193,978 1176,936C1159,894 1135,858 1102,827C1072,798 1036,774 994,753C952,732 906,714 855,699C925,606 983,528 1030,465C1076,402 1133,325 1200,234C1229,194 1256,165 1280,146C1303,127 1327,111 1350,99C1367,90 1389,84 1415,79C1441,74 1463,72 1480,71M954,1058C954,1144 929,1212 880,1263C831,1313 761,1338 671,1338l-170,0l0,-609l131,0C724,729 801,759 862,818C923,877 954,957 954,1058z"/>
<glyph unicode="S" horiz-adv-x="1149" d="M981,651C1011,618 1033,581 1048,542C1062,502 1069,456 1069,403C1069,278 1023,174 930,93C837,12 722,-29 585,-29C522,-29 458,-19 395,1C332,20 277,44 231,72l-43,-73l-80,0l-14,486l81,0C192,425 211,371 234,323C256,274 285,229 322,187C357,148 397,116 444,93C490,70 544,58 605,58C651,58 691,64 726,76C760,88 788,105 809,127C830,149 846,175 857,205C867,234 872,268 872,307C872,364 856,417 824,466C792,515 744,552 681,577C638,594 588,614 532,635C476,656 428,675 387,694C307,730 245,777 201,836C156,894 134,970 134,1064C134,1118 145,1168 167,1215C189,1262 220,1303 261,1340C300,1375 345,1402 398,1422C451,1441 506,1451 563,1451C628,1451 687,1441 739,1421C790,1401 837,1378 880,1351l41,68l80,0l8,-471l-81,0C913,1002 897,1054 879,1103C860,1152 836,1197 807,1237C778,1276 743,1307 702,1330C661,1353 610,1364 550,1364C487,1364 433,1344 388,1303C343,1262 321,1213 321,1154C321,1093 335,1042 364,1002C393,961 434,928 489,902C538,879 586,859 633,842C680,825 725,806 769,787C809,770 848,750 885,728C922,706 954,680 981,651z"/>
<glyph unicode="T" horiz-adv-x="1267" d="M1251,1034l-69,0C1176,1058 1165,1087 1150,1120C1134,1153 1116,1184 1097,1213C1077,1244 1055,1271 1032,1294C1008,1317 985,1330 963,1333C942,1336 916,1338 885,1339C854,1340 825,1341 798,1341l-58,0l0,-1135C740,184 745,164 754,146C763,127 780,113 803,103C815,98 840,92 879,84C917,76 947,72 968,71l0,-71l-670,0l0,71C317,72 345,75 384,79C422,83 448,88 463,94C485,103 501,115 512,132C522,148 527,170 527,197l0,1144l-58,0C448,1341 423,1341 392,1340C361,1339 332,1336 304,1333C282,1330 259,1317 236,1294C212,1270 190,1243 170,1213C150,1183 132,1151 117,1118C102,1084 91,1056 85,1034l-70,0l0,385l1236,0z"/>
<glyph unicode="U" horiz-adv-x="1549" d="M1533,1348C1514,1347 1487,1343 1451,1336C1415,1329 1386,1318 1363,1303C1340,1288 1325,1256 1316,1208C1307,1160 1303,1101 1303,1032l0,-617C1303,336 1287,268 1254,210C1221,152 1178,104 1125,67C1072,31 1017,5 959,-10C900,-26 844,-34 791,-34C706,-34 630,-23 563,0C496,22 440,52 395,90C350,128 317,172 294,221C271,270 260,321 260,374l0,839C260,1236 256,1256 249,1272C241,1287 225,1302 202,1315C185,1324 164,1332 138,1338C112,1343 91,1347 74,1348l0,71l591,0l0,-71C646,1347 623,1344 595,1339C566,1334 545,1329 532,1324C509,1316 494,1303 487,1284C479,1265 475,1245 475,1223l0,-784C475,401 479,361 488,320C496,278 512,239 537,203C563,166 598,136 643,113C688,90 749,78 827,78C900,78 962,90 1012,113C1061,136 1100,167 1129,205C1156,241 1176,279 1187,318C1198,357 1204,397 1204,437l0,582C1204,1093 1199,1154 1188,1201C1177,1248 1162,1278 1141,1293C1118,1310 1086,1323 1046,1332C1005,1341 974,1347 953,1348l0,71l580,0z"/>
<glyph unicode="V" horiz-adv-x="1365" d="M1407,1348C1390,1347 1369,1344 1344,1337C1319,1330 1299,1321 1283,1311C1260,1297 1242,1279 1229,1257C1215,1235 1201,1209 1188,1179C1143,1073 1076,908 987,684C898,459 806,225 711,-18l-83,0C532,240 439,489 350,728C261,967 200,1129 168,1213C160,1234 149,1252 136,1268C123,1283 105,1298 83,1312C65,1323 45,1332 23,1338C1,1343 -19,1347 -38,1348l0,71l587,0l0,-71C499,1345 457,1340 423,1333C388,1326 371,1313 371,1294C371,1287 372,1278 375,1268C378,1258 380,1250 382,1244C407,1179 447,1072 502,925C557,777 636,567 738,294C789,417 847,563 913,731C979,899 1023,1014 1046,1077C1068,1138 1081,1180 1085,1203C1088,1226 1090,1245 1090,1260C1090,1275 1083,1288 1070,1299C1056,1309 1038,1318 1015,1325C993,1332 971,1337 948,1340C925,1343 902,1346 879,1348l0,71l528,0z"/>
<glyph unicode="W" horiz-adv-x="1998" d="M2028,1348C2011,1347 1992,1344 1970,1337C1948,1330 1928,1320 1909,1309C1886,1294 1867,1278 1853,1259C1838,1240 1826,1213 1815,1179C1768,1025 1713,845 1650,640C1587,434 1520,215 1447,-18l-92,0l-358,1092l-373,-1092l-88,0C470,215 402,458 331,709C260,960 213,1128 189,1213C183,1234 174,1252 163,1268C151,1284 135,1299 115,1312C98,1323 79,1332 57,1338C34,1343 14,1347 -4,1348l0,71l579,0l0,-71C524,1345 481,1340 446,1333C410,1326 392,1313 392,1296C392,1289 393,1281 395,1270C397,1259 399,1250 400,1243C415,1184 443,1088 482,953C521,818 578,615 655,346l354,1053l98,0l357,-1076C1512,488 1553,633 1588,757C1623,880 1651,986 1674,1074C1690,1136 1700,1179 1704,1202C1708,1225 1710,1244 1710,1260C1710,1283 1695,1302 1664,1317C1633,1332 1582,1343 1513,1348l0,71l515,0z"/>
<glyph unicode="X" horiz-adv-x="1455" d="M1457,0l-664,0l0,71C848,72 892,78 926,87C959,96 976,109 976,128C976,138 968,159 953,190C938,221 918,256 894,295C867,338 836,388 799,446C762,503 726,558 690,611C631,534 565,441 490,332C415,223 378,158 378,139C378,117 388,101 409,91C429,80 474,74 543,71l0,-71l-530,0l0,71C30,72 53,75 80,79C107,82 129,88 146,97C181,116 209,136 230,158C251,179 272,205 293,234C336,293 390,366 457,454C524,541 583,621 634,693C595,750 546,822 486,909C426,996 362,1089 294,1188C265,1230 243,1260 227,1277C210,1294 188,1309 161,1322C145,1329 123,1335 95,1340C66,1344 44,1347 27,1348l0,71l657,0l0,-71C645,1347 605,1342 564,1334C522,1325 501,1312 501,1295C501,1282 509,1260 526,1229C543,1197 562,1163 585,1127C608,1090 634,1048 663,1003C692,958 727,905 768,846C843,948 908,1040 963,1122C1018,1204 1045,1257 1045,1282C1045,1303 1033,1319 1008,1329C983,1339 940,1345 881,1348l0,71l529,0l0,-71C1393,1347 1372,1345 1345,1341C1318,1336 1295,1330 1277,1322C1242,1305 1217,1287 1200,1268C1183,1249 1160,1221 1131,1184C1078,1115 1029,1051 984,991C939,930 884,857 821,770C874,694 934,608 1000,511C1065,414 1128,322 1188,234C1209,204 1232,176 1259,149C1286,122 1307,103 1324,93C1340,84 1362,78 1389,76C1416,73 1438,72 1457,71z"/>
<glyph unicode="Y" horiz-adv-x="1260" d="M1314,1348C1303,1347 1285,1343 1260,1335C1235,1326 1218,1318 1207,1310C1181,1294 1163,1282 1154,1273C1145,1264 1127,1242 1100,1205C1048,1132 1000,1057 956,982C912,907 857,811 791,695C766,652 750,618 742,592C734,566 730,528 730,479l0,-271C730,184 735,163 745,146C754,128 771,114 794,103C808,98 833,91 869,84C905,76 934,72 956,71l0,-71l-664,0l0,71C311,72 339,75 376,79C413,82 439,87 454,93C478,103 495,117 504,134C513,151 517,173 517,198l0,345C517,554 511,573 498,602C485,630 469,661 451,696C411,773 367,857 318,947C269,1037 227,1114 191,1178C169,1216 150,1245 133,1264C116,1283 96,1300 74,1315C58,1325 39,1333 17,1338C-6,1343 -26,1347 -44,1348l0,71l605,0l0,-71C493,1347 445,1342 417,1334C389,1326 375,1315 375,1300C375,1296 377,1289 381,1279C385,1269 391,1256 398,1241C407,1224 417,1204 429,1182C441,1159 452,1138 463,1117C494,1058 526,999 559,940C592,881 634,804 687,709C792,878 872,1009 927,1104C982,1198 1009,1254 1009,1273C1009,1288 1003,1301 992,1310C981,1319 966,1327 947,1332C928,1337 907,1341 884,1343C861,1344 840,1346 821,1348l0,71l493,0z"/>
<glyph unicode="Z" horiz-adv-x="1232" d="M1214,443l-47,-443l-1140,0l0,35l893,1305l-327,0C555,1340 523,1339 498,1338C472,1337 448,1334 427,1330C383,1321 334,1285 279,1221C224,1157 182,1089 154,1018l-70,0l43,401l1063,0l0,-35l-893,-1305l337,0C691,79 751,83 815,91C879,99 921,113 940,132C983,173 1024,224 1061,284C1098,344 1126,397 1144,443z"/>
<glyph unicode="\" horiz-adv-x="960" d="M911,-424l-130,0l-691,1947l132,0z"/>
<glyph unicode="^" horiz-adv-x="1317" d="M1126,796l-145,0l-321,524l-324,-524l-145,0l412,660l113,0z"/>
<glyph unicode="_" horiz-adv-x="1317" d="M1322,-282l-1327,0l0,101l1327,0z"/>
<glyph unicode="a" horiz-adv-x="1032" d="M1006,18C975,7 947,-2 924,-9C900,-16 873,-20 843,-20C791,-20 750,-8 719,17C688,41 668,76 659,123l-6,0C610,75 563,38 514,13C464,-12 404,-25 334,-25C260,-25 199,-2 152,43C104,88 80,148 80,221C80,259 85,293 96,323C107,353 123,380 144,404C161,424 183,442 210,458C237,473 263,486 287,495C317,506 378,527 470,558C561,589 623,613 655,630l0,99C655,738 653,754 650,779C646,804 638,827 626,849C613,874 594,895 570,914C545,932 511,941 466,941C435,941 407,936 381,926C354,915 336,904 325,893C325,880 328,860 335,834C341,808 344,784 344,762C344,739 334,717 313,698C292,679 262,669 225,669C192,669 167,681 152,705C136,728 128,755 128,784C128,815 139,844 161,872C182,900 210,925 245,947C275,966 311,982 354,995C397,1008 438,1014 479,1014C535,1014 584,1010 626,1003C667,995 705,978 739,953C773,928 799,895 817,853C834,810 843,756 843,689C843,594 842,509 840,436C838,362 837,281 837,194C837,168 842,147 851,132C860,117 873,104 892,93C902,87 918,84 940,83C961,82 983,82 1006,82M657,546C600,529 551,513 508,497C465,481 426,461 389,437C356,414 329,388 310,357C291,326 281,289 281,246C281,191 296,150 325,124C354,98 390,85 435,85C482,85 524,97 560,120C596,143 626,170 651,201z"/>
<glyph unicode="b" horiz-adv-x="1147" d="M1073,494C1073,346 1026,222 933,121C840,20 731,-30 608,-30C554,-30 501,-22 449,-5C396,12 347,34 301,62l-74,-115l-62,14C168,10 171,70 172,139C173,208 174,275 174,340l0,976C174,1339 169,1361 159,1384C148,1407 135,1423 119,1433C106,1442 85,1448 56,1453C26,1457 2,1460 -16,1461l0,64l362,23l14,-15l0,-650l7,-2C408,925 454,958 503,980C552,1002 600,1013 647,1013C768,1013 870,965 951,869C1032,773 1073,648 1073,494M864,487C864,536 859,587 848,638C837,689 821,734 798,772C775,811 746,842 709,866C672,890 628,902 577,902C530,902 490,893 455,875C420,856 388,831 360,800l0,-574C364,210 372,191 384,170C395,149 411,128 431,109C451,90 474,75 499,64C524,52 555,46 592,46C673,46 739,85 789,164C839,243 864,350 864,487z"/>
<glyph unicode="c" horiz-adv-x="930" d="M528,-26C385,-26 274,21 193,116C112,211 72,338 72,497C72,566 83,631 105,692C126,752 158,807 199,856C238,903 288,942 347,971C406,1000 471,1014 541,1014C638,1014 716,991 777,945C838,898 868,835 868,755C868,722 860,692 844,667C828,641 802,628 765,628C726,628 695,638 674,658C652,678 641,700 641,725C641,755 645,786 653,818C661,849 666,872 667,887C655,908 637,922 614,929C590,936 564,939 537,939C505,939 475,932 446,919C417,905 388,880 361,843C336,810 316,765 301,708C286,651 278,584 278,505C278,381 306,280 361,202C416,123 488,84 577,84C642,84 696,100 740,131C783,162 824,209 861,272l64,-42C881,151 823,89 751,43C679,-3 605,-26 528,-26z"/>
<glyph unicode="d" horiz-adv-x="1176" d="M1152,18l-344,-22l-15,14l0,92l-8,2C750,65 708,34 657,9C606,-16 553,-28 499,-28C443,-28 389,-15 337,10C284,35 239,70 200,115C161,161 130,216 107,281C84,346 72,417 72,495C72,566 84,634 109,698C134,762 168,818 211,866C252,911 302,946 361,973C420,1000 480,1013 541,1013C587,1013 632,1007 677,996C721,984 759,969 791,951l0,343C791,1322 786,1348 777,1371C768,1394 755,1411 738,1423C719,1436 694,1445 663,1451C631,1456 597,1460 560,1463l0,62l403,23l15,-15l0,-1330C978,180 983,160 992,144C1001,127 1014,113 1031,102C1044,94 1062,89 1086,87C1110,85 1132,84 1152,83M791,191l0,577C786,785 777,804 765,824C753,844 738,862 720,879C701,896 678,910 652,921C626,932 596,937 561,937C521,937 484,927 451,906C417,885 387,856 361,817C336,780 317,732 303,675C288,617 281,553 281,483C281,427 286,376 297,331C308,285 326,242 351,203C374,166 404,136 441,113C477,90 520,79 570,79C623,79 668,91 703,114C738,137 767,163 791,191z"/>
<glyph unicode="e" horiz-adv-x="990" d="M948,232C907,153 851,91 782,44C713,-3 633,-26 543,-26C464,-26 394,-12 335,16C275,44 226,82 187,130C148,178 120,234 101,298C82,362 72,430 72,501C72,565 82,628 103,690C123,751 153,807 192,856C230,903 277,942 334,971C390,1000 453,1014 523,1014C595,1014 657,1003 708,980C759,957 801,926 833,887C864,850 887,806 902,755C917,704 924,649 924,590l0,-66l-653,0C271,459 277,401 290,348C302,295 321,249 348,209C374,170 408,140 450,118C492,95 542,84 600,84C659,84 711,98 754,126C797,153 838,203 878,275M727,608C727,645 724,685 718,728C711,771 701,806 687,835C672,866 651,891 624,910C597,929 563,939 521,939C451,939 393,910 347,852C300,793 275,712 271,608z"/>
<glyph unicode="f" horiz-adv-x="666" d="M806,1429C806,1399 798,1374 782,1353C766,1332 742,1322 709,1322C688,1322 670,1326 655,1335C639,1344 624,1355 611,1370C598,1385 585,1401 574,1420C563,1439 553,1454 545,1465C500,1463 466,1432 442,1372C417,1311 405,1215 405,1083l0,-101l254,0l0,-96l-254,0l0,-708C405,155 410,136 419,121C428,106 442,95 461,88C477,82 498,77 525,74C552,70 575,67 594,66l0,-66l-520,0l0,66C89,67 105,69 122,70C138,71 152,74 164,78C183,84 197,95 206,110C215,125 219,144 219,168l0,718l-195,0l0,96l195,0l0,63C219,1195 258,1317 336,1410C413,1503 510,1549 627,1549C686,1549 731,1537 761,1514C791,1491 806,1462 806,1429z"/>
<glyph unicode="g" horiz-adv-x="1043" d="M917,102C944,77 965,48 980,16C995,-16 1003,-56 1003,-103C1003,-150 993,-195 972,-236C951,-278 920,-314 878,-345C833,-376 780,-401 718,-418C656,-435 579,-444 488,-444C339,-444 227,-422 153,-378C79,-335 42,-271 42,-187C42,-119 69,-65 122,-26C175,13 243,35 326,38l0,14C306,58 285,66 264,75C243,84 224,94 209,106C192,120 178,137 167,156C156,175 151,198 151,226C151,261 164,294 189,324C214,353 251,379 302,400l0,15C238,445 188,484 153,531C118,578 100,632 100,694C100,787 135,864 205,924C274,984 363,1014 472,1014C502,1014 532,1011 562,1005C591,999 621,991 652,982l344,0l0,-96l-232,0l0,-6C789,851 807,820 819,785C831,750 837,716 837,683C837,596 802,523 732,463C661,403 579,373 486,373l-121,0C350,368 334,358 317,344C300,330 292,311 292,287C292,262 299,244 313,231C327,218 344,209 364,204C383,199 406,195 432,194C457,193 484,192 511,191C540,190 581,188 632,185C683,182 719,180 740,179C771,178 802,170 833,157C864,144 892,125 917,102M647,687C647,765 631,827 600,874C568,920 523,943 466,943C435,943 408,937 386,924C363,911 345,892 331,868C318,846 308,820 303,789C297,758 294,726 294,693C294,619 310,559 343,512C375,465 417,442 468,442C525,442 570,465 601,512C632,558 647,616 647,687M839,-140C839,-103 830,-72 813,-48C796,-24 769,-8 734,1C715,4 677,7 619,10C561,13 494,15 417,15C345,1 294,-22 264,-55C233,-88 218,-131 218,-183C218,-206 223,-229 233,-250C243,-271 260,-291 285,-309C308,-326 340,-340 379,-351C418,-362 466,-368 523,-368C621,-368 698,-349 755,-311C811,-274 839,-217 839,-140z"/>
<glyph unicode="h" horiz-adv-x="1192" d="M1143,0l-484,0l0,66C674,67 691,69 710,70C729,71 744,74 756,78C775,84 789,95 798,110C807,125 811,144 811,168l0,507C811,745 795,799 762,837C729,875 688,894 641,894C606,894 574,889 545,878C515,867 488,853 465,837C442,820 425,804 413,787C401,770 392,756 385,745l0,-567C385,155 390,137 399,122C408,107 421,96 440,88C455,81 470,76 486,73C501,70 518,67 537,66l0,-66l-484,0l0,66C68,67 84,69 101,71C118,72 132,75 143,78C162,84 176,95 185,110C194,125 199,144 199,168l0,1148C199,1339 194,1361 184,1384C173,1407 160,1424 143,1435C131,1444 110,1450 80,1454C49,1457 25,1460 6,1461l0,64l365,23l14,-15l0,-688l4,0C411,867 431,887 449,904C467,921 491,938 520,957C545,973 575,986 610,997C644,1008 682,1013 725,1013C813,1013 881,985 928,930C975,874 999,794 999,689l0,-513C999,153 1003,134 1012,120C1020,105 1034,94 1053,86C1068,80 1082,76 1095,73C1107,70 1123,67 1143,66z"/>
<glyph unicode="i" horiz-adv-x="600" d="M551,0l-477,0l0,66C89,67 105,69 122,70C138,71 152,74 164,78C183,84 197,95 206,110C215,125 219,144 219,168l0,609C219,798 214,818 205,836C195,853 181,868 164,880C151,888 133,895 109,901C85,906 63,910 43,911l0,65l348,22l14,-14l0,-804C405,157 410,137 419,122C428,107 442,95 461,88C476,82 490,77 504,74C518,70 534,67 551,66M425,1387C425,1349 413,1316 388,1288C363,1259 332,1245 295,1245C261,1245 232,1259 207,1286C182,1313 169,1343 169,1378C169,1415 182,1447 207,1474C232,1501 261,1515 295,1515C333,1515 364,1502 389,1477C413,1451 425,1421 425,1387z"/>
<glyph unicode="j" horiz-adv-x="598" d="M431,60C431,-13 420,-82 399,-146C378,-211 349,-264 314,-306C276,-351 233,-385 186,-408C138,-432 85,-444 28,-444C-31,-444 -76,-432 -106,-408C-136,-385 -151,-357 -151,-325C-151,-296 -143,-271 -127,-249C-111,-228 -88,-217 -57,-217C-36,-217 -18,-221 -2,-230C14,-239 28,-250 40,-264C51,-276 62,-291 73,-308C84,-326 94,-343 104,-360C155,-360 191,-329 213,-268C234,-207 245,-108 245,27l0,742C245,790 240,811 230,831C219,850 206,866 189,878C178,885 153,893 113,900C72,907 42,912 21,914l0,62l396,22l14,-14M446,1388C446,1350 434,1317 409,1289C384,1260 353,1246 316,1246C282,1246 253,1260 228,1287C203,1314 190,1344 190,1379C190,1416 203,1448 228,1475C253,1502 282,1516 316,1516C354,1516 385,1503 410,1478C434,1452 446,1422 446,1388z"/>
<glyph unicode="k" horiz-adv-x="1097" d="M1117,0l-298,0C767,75 711,156 652,242C593,328 531,412 467,493l-82,-77l0,-234C385,158 389,138 398,123C407,107 421,95 440,88C456,81 471,76 486,73C501,70 518,67 537,66l0,-66l-484,0l0,66C68,67 84,69 101,71C118,72 132,75 143,78C162,84 176,95 185,110C194,125 199,144 199,168l0,1146C199,1339 194,1362 184,1384C173,1405 160,1422 143,1433C129,1444 107,1451 78,1454C48,1457 24,1460 6,1461l0,64l365,23l14,-15l0,-1043C437,542 493,598 554,658C614,717 665,770 706,817C711,823 717,831 724,841C730,850 733,858 733,864C733,882 719,895 690,904C661,913 633,919 606,922l0,64l434,0l0,-62C984,907 935,887 892,862C849,837 816,814 793,794C777,781 754,759 725,729C696,699 655,660 602,611C657,544 718,463 787,369C855,275 905,207 936,165C965,126 992,100 1015,88C1038,76 1072,69 1117,66z"/>
<glyph unicode="l" horiz-adv-x="586" d="M534,0l-481,0l0,66C68,67 85,69 102,71C119,72 134,75 145,78C164,84 178,95 187,110C196,125 201,144 201,168l0,1142C201,1334 196,1357 186,1378C175,1399 162,1415 145,1427C133,1435 111,1442 79,1449C47,1456 21,1460 2,1461l0,64l371,23l14,-15l0,-1353C387,157 391,138 400,123C409,108 423,96 442,88C457,81 471,76 486,73C500,70 516,67 534,66z"/>
<glyph unicode="m" horiz-adv-x="1804" d="M1761,0l-481,0l0,66C1295,67 1311,69 1327,70C1342,71 1356,74 1368,78C1387,84 1401,95 1410,110C1419,125 1423,144 1423,168l0,509C1423,746 1407,800 1376,838C1344,875 1304,894 1257,894C1224,894 1194,889 1165,879C1136,869 1110,855 1086,837C1067,822 1051,807 1038,790C1025,773 1015,758 1008,747l0,-569C1008,155 1012,136 1020,121C1028,106 1042,94 1061,86C1076,80 1090,76 1103,73C1115,70 1131,67 1151,66l0,-66l-471,0l0,66C695,67 710,69 725,70C739,71 752,74 764,78C783,84 797,95 806,110C815,125 819,144 819,168l0,509C819,746 803,800 772,838C740,875 700,894 653,894C620,894 590,889 561,879C532,868 506,854 482,836C463,821 446,805 433,787C420,768 410,754 403,745l0,-565C403,157 408,138 417,123C426,108 440,96 459,88C473,81 487,76 502,73C517,70 533,67 551,66l0,-66l-479,0l0,66C87,67 103,69 120,70C136,71 150,74 162,78C181,84 195,95 204,110C213,125 217,144 217,168l0,613C217,802 212,822 203,839C193,856 179,870 162,882C149,890 134,897 115,902C96,907 77,910 57,911l0,65l330,22l14,-14l0,-141l7,0C425,860 445,879 469,902C493,925 515,943 536,957C559,973 589,986 624,997C659,1008 696,1013 737,1013C801,1013 856,996 902,962C948,927 981,886 1001,837C1025,860 1046,881 1065,899C1083,916 1107,935 1137,955C1162,972 1192,986 1227,997C1261,1008 1299,1013 1341,1013C1424,1013 1490,986 1539,931C1588,876 1612,792 1612,679l0,-501C1612,155 1616,136 1624,121C1632,106 1646,94 1665,86C1680,80 1696,76 1711,73C1726,70 1742,67 1761,66z"/>
<glyph unicode="n" horiz-adv-x="1210" d="M1161,0l-483,0l0,66C693,67 710,69 729,70C747,71 762,74 774,78C793,84 807,95 816,110C825,125 829,144 829,168l0,507C829,745 813,799 780,837C747,875 706,894 659,894C624,894 591,889 562,878C533,867 507,853 484,837C462,822 445,805 432,788C419,770 409,756 403,745l0,-567C403,155 408,137 417,122C426,107 440,96 459,88C473,81 488,76 505,73C521,70 538,67 555,66l0,-66l-483,0l0,66C87,67 103,69 120,70C136,71 150,74 162,78C181,84 195,95 204,110C213,125 217,144 217,168l0,609C217,800 212,821 203,840C193,859 179,874 162,886C149,894 134,900 117,904C100,907 81,910 61,911l0,65l328,22l14,-14l0,-139l5,0C424,861 444,880 468,903C492,925 515,943 536,957C561,973 590,986 624,997C658,1008 696,1013 739,1013C834,1013 904,984 950,925C995,866 1018,787 1018,689l0,-513C1018,153 1022,134 1030,120C1038,105 1052,94 1071,86C1087,79 1101,75 1113,72C1124,69 1140,67 1161,66z"/>
<glyph unicode="o" horiz-adv-x="1104" d="M1033,503C1033,434 1022,366 1000,299C978,232 947,175 906,128C860,75 807,35 746,9C685,-17 617,-30 542,-30C479,-30 420,-18 363,6C306,29 256,64 212,109C169,154 134,208 109,273C83,337 70,409 70,489C70,643 115,769 205,867C294,965 412,1014 557,1014C695,1014 809,968 899,875C988,782 1033,658 1033,503M826,501C826,551 821,604 811,660C801,715 786,762 766,801C745,842 717,876 682,901C647,926 605,938 555,938C504,938 460,925 424,900C387,875 358,840 335,796C314,755 299,709 290,657C281,605 277,555 277,506C277,442 282,383 293,329C303,274 319,226 342,183C365,140 393,107 428,83C462,58 504,46 555,46C638,46 704,86 753,167C802,248 826,359 826,501z"/>
<glyph unicode="p" horiz-adv-x="1170" d="M973,869C1012,822 1043,768 1065,707C1086,645 1097,574 1097,495C1097,417 1084,346 1058,282C1032,217 998,162 955,117C910,71 861,36 806,11C751,-14 693,-26 632,-26C573,-26 524,-19 486,-6C448,7 417,23 393,41l-8,0l0,-296C385,-279 390,-299 399,-315C408,-331 423,-343 442,-350C458,-356 481,-362 511,-367C540,-373 565,-376 584,-377l0,-67l-551,0l0,67C54,-376 74,-374 93,-372C112,-370 130,-367 145,-362C165,-355 179,-344 187,-327C195,-310 199,-291 199,-268l0,1049C199,801 194,820 184,839C174,858 161,873 145,884C133,892 116,898 95,903C74,907 53,910 33,911l0,65l336,22l14,-12l0,-111l8,-2C426,913 469,946 520,973C571,1000 622,1013 673,1013C734,1013 791,1000 842,974C893,948 936,913 973,869M810,160C837,201 856,249 869,304C882,359 888,420 888,487C888,536 883,587 872,638C861,689 845,734 822,772C799,811 770,842 733,866C696,890 652,902 601,902C552,902 510,891 475,870C440,848 410,822 385,792l0,-583C391,191 401,172 415,153C428,134 443,117 460,103C481,86 503,73 527,63C551,52 580,47 615,47C652,47 688,57 723,77C758,96 787,124 810,160z"/>
<glyph unicode="q" horiz-adv-x="1146" d="M1154,-444l-533,0l0,67C642,-376 662,-374 682,-372C702,-370 720,-367 736,-362C757,-355 771,-344 779,-327C787,-310 791,-291 791,-268l0,364l-6,2C774,86 759,72 740,57C720,41 699,28 678,18C651,4 626,-7 601,-14C576,-22 545,-26 508,-26C448,-26 392,-13 339,12C286,37 239,72 200,118C161,163 130,219 107,286C84,352 72,425 72,504C72,579 85,648 112,710C139,771 174,825 218,871C260,914 311,949 370,975C429,1000 487,1013 545,1013C588,1013 627,1009 661,1001C694,992 723,982 747,971C768,962 788,951 809,938C830,924 844,915 853,910l85,130l57,-8C992,983 989,922 985,850C980,778 978,715 978,661l0,-912C978,-274 982,-294 991,-311C1000,-328 1014,-341 1033,-350C1049,-357 1069,-362 1094,-367C1119,-372 1139,-376 1154,-377M791,183l0,589C786,789 777,807 764,828C751,848 736,866 719,881C700,897 678,910 651,921C624,932 592,937 557,937C479,937 414,897 361,816C308,735 281,624 281,483C281,427 286,376 297,331C307,286 325,243 350,204C374,167 404,137 441,115C478,92 524,81 580,81C628,81 669,91 703,112C737,132 766,156 791,183z"/>
<glyph unicode="r" horiz-adv-x="839" d="M827,859C827,825 819,795 802,769C785,742 760,729 725,729C688,729 659,739 640,758C620,777 610,799 610,822C610,837 611,850 614,862C616,874 618,886 620,898C589,898 552,885 510,860C468,835 432,799 403,752l0,-574C403,155 408,136 417,121C426,106 440,95 459,88C476,81 497,76 524,73C550,70 573,67 592,66l0,-66l-520,0l0,66C87,67 103,69 120,70C136,71 150,74 162,78C181,84 195,95 204,110C213,125 217,144 217,168l0,609C217,798 212,818 203,838C193,858 179,874 162,886C149,894 134,900 117,904C100,907 81,910 61,911l0,65l328,22l14,-14l0,-139l5,0C449,899 495,940 546,968C597,996 643,1010 685,1010C727,1010 761,996 788,969C814,942 827,905 827,859z"/>
<glyph unicode="s" horiz-adv-x="885" d="M723,483C750,459 771,431 786,400C801,369 808,330 808,285C808,194 774,119 706,61C637,3 549,-26 440,-26C383,-26 330,-16 282,5C233,26 199,45 178,62l-20,-65l-75,0l-10,343l69,0C147,314 159,284 176,249C193,214 214,183 239,155C265,126 296,101 333,81C369,61 410,51 455,51C519,51 568,66 603,95C638,124 655,165 655,219C655,247 650,271 639,292C628,312 611,330 590,345C568,360 541,374 509,387C477,399 441,411 402,423C371,432 336,445 298,462C259,478 226,497 199,519C170,542 146,571 127,605C108,639 99,679 99,725C99,806 129,874 189,930C249,986 329,1014 430,1014C469,1014 508,1009 549,999C589,989 622,977 647,963l23,52l72,0l15,-317l-69,0C674,769 644,826 598,871C551,915 495,937 428,937C373,937 330,923 299,896C268,869 252,836 252,797C252,767 257,742 268,722C278,702 293,685 314,671C334,658 359,645 390,634C420,622 457,609 502,594C546,580 588,564 627,545C666,526 698,506 723,483z"/>
<glyph unicode="t" horiz-adv-x="707" d="M681,43C638,25 597,10 558,-2C519,-15 472,-21 416,-21C333,-21 275,0 242,42C208,83 191,142 191,218l0,668l-178,0l0,96l182,0l0,307l182,0l0,-307l283,0l0,-96l-281,0l0,-551C379,294 381,259 384,232C387,204 394,180 405,159C416,140 432,125 453,115C474,105 503,100 539,100C556,100 580,102 613,105C645,108 668,111 681,116z"/>
<glyph unicode="u" horiz-adv-x="1178" d="M1129,18l-321,-22l-15,14l0,125l-6,0C771,118 753,101 733,82C713,63 690,45 664,30C634,12 605,-2 577,-11C549,-20 509,-25 458,-25C371,-25 304,4 259,61C213,118 190,200 190,309l0,472C190,805 186,825 177,842C168,858 154,872 137,884C125,892 110,898 92,902C74,905 55,908 35,909l0,65l329,24l15,-14l0,-685C379,228 395,174 427,138C459,102 497,84 542,84C579,84 611,90 640,101C669,112 693,126 712,141C730,155 746,170 760,186C773,201 784,216 791,229l0,559C791,810 786,830 777,847C768,864 755,878 738,890C726,898 708,903 685,905C661,906 634,908 605,909l0,65l358,24l15,-14l0,-783C978,178 983,159 992,143C1001,127 1014,113 1031,102C1043,95 1057,90 1074,88C1091,85 1109,84 1129,83z"/>
<glyph unicode="v" horiz-adv-x="1017" d="M1046,925C1016,920 988,909 961,893C934,876 910,847 891,806C852,717 811,624 769,527C727,430 683,328 638,221C625,190 611,154 596,112C581,70 567,30 554,-9l-78,0C413,148 354,291 301,420C248,549 192,681 135,816C122,847 100,871 71,888C41,905 11,915 -19,920l0,66l456,0l0,-70C417,915 392,911 362,904C332,896 317,885 317,872C317,870 319,865 322,857C325,848 329,839 332,828C359,760 398,665 448,543C498,421 539,323 570,248C594,305 624,377 661,462C697,547 736,643 778,748C785,766 791,783 797,799C803,814 806,830 806,846C806,857 801,868 790,877C779,886 765,893 750,900C735,907 720,912 705,915C690,918 678,921 669,922l0,64l377,0z"/>
<glyph unicode="w" horiz-adv-x="1510" d="M1541,922C1513,919 1483,908 1451,887C1418,866 1395,835 1380,794C1347,696 1315,603 1286,516C1256,428 1223,329 1186,220C1174,185 1162,148 1150,108C1137,68 1126,30 1116,-7l-86,0l-265,726l-267,-726l-82,0C366,141 317,288 270,434C222,579 180,706 143,814C132,845 112,870 82,888C52,906 23,917 -5,920l0,66l440,0l0,-70C413,915 389,912 364,905C338,898 325,887 325,872C325,869 326,864 329,855C331,846 334,837 337,827C358,757 383,679 410,593C437,506 471,394 514,256l252,710l96,0l257,-700C1148,355 1176,442 1205,526C1233,609 1258,688 1279,761C1284,778 1288,794 1293,809C1297,823 1299,837 1299,851C1299,863 1294,874 1283,883C1272,892 1259,900 1244,906C1231,911 1216,915 1201,918C1185,921 1173,922 1166,922l0,64l375,0z"/>
<glyph unicode="x" horiz-adv-x="1034" d="M1022,0l-452,0l0,66C600,69 626,73 647,76C668,79 678,88 678,102C678,108 675,117 668,130C661,143 655,154 648,165C631,191 609,226 580,270C551,313 515,365 473,426C438,383 406,341 377,300C348,259 317,215 285,169C280,162 276,154 271,144C266,134 263,126 263,120C263,105 273,93 292,84C311,74 339,67 377,64l0,-64l-365,0l0,62C57,75 94,92 122,111C149,130 175,153 198,181C219,208 248,244 285,291C322,338 369,401 428,481C394,530 353,589 304,660C255,730 214,788 182,835C165,860 145,881 123,897C100,912 69,920 28,920l0,66l429,0l0,-66C436,920 415,919 394,916C373,913 363,907 363,898C363,892 365,885 369,878C373,871 378,863 384,854C399,831 422,796 453,749C484,702 517,652 553,599C576,631 604,668 635,711C666,754 694,794 720,833C723,838 725,844 728,851C731,858 732,864 732,871C732,885 721,896 698,905C675,913 653,919 632,922l0,64l364,0l0,-62C945,911 905,895 876,877C847,858 823,837 803,813C781,786 755,752 725,712C694,672 652,616 597,544C658,459 707,389 745,334C783,279 821,223 860,165C879,136 901,113 925,96C948,79 981,69 1022,66z"/>
<glyph unicode="y" horiz-adv-x="1008" d="M-3,-322C-3,-289 6,-261 25,-240C43,-219 66,-209 93,-209C114,-209 133,-213 148,-221C163,-229 177,-239 189,-252C199,-262 210,-276 221,-293C232,-310 241,-325 248,-336C281,-318 321,-271 368,-195C414,-119 447,-52 468,5C405,163 347,304 296,429C245,554 191,683 135,816C122,847 101,871 71,888C41,905 11,915 -19,920l0,66l450,0l0,-70C411,915 387,911 359,904C331,896 317,887 317,877C317,873 319,866 322,857C325,848 328,838 332,828C357,762 396,667 448,543C500,418 540,319 569,244C599,315 630,389 663,466C695,542 731,632 771,736C776,749 782,766 791,789C800,811 804,830 804,846C804,863 789,880 759,895C728,910 699,919 672,922l0,64l366,0l0,-62C1018,921 992,909 959,890C926,870 902,842 886,806C807,622 736,454 675,303C613,152 566,40 534,-31C492,-124 455,-197 422,-249C389,-302 356,-343 325,-373C294,-401 267,-420 242,-429C217,-439 191,-444 164,-444C112,-444 71,-432 42,-407C12,-382 -3,-354 -3,-322z"/>
<glyph unicode="z" horiz-adv-x="909" d="M853,0l-798,0l0,53l558,852l-138,0C417,905 372,904 339,902C306,900 276,893 249,882C230,875 213,854 197,819C180,784 166,739 154,683l-61,0l0,303l754,0l0,-41l-567,-864C304,80 330,80 359,80C388,79 419,79 452,79C479,79 507,79 536,80C565,81 602,82 647,85C674,86 694,95 708,112C721,129 732,148 739,169C746,188 755,215 766,249C776,283 785,316 793,348l60,0z"/>
<glyph unicode="~" horiz-adv-x="1317" d="M1187,714C1178,689 1162,659 1141,622C1119,585 1095,553 1068,526C1035,493 1001,468 965,449C928,430 889,420 846,420C798,420 754,427 714,442C674,456 637,471 604,488C570,505 537,521 504,535C471,549 437,556 404,556C359,556 323,541 294,510C265,479 236,436 208,380l-78,31C139,436 154,467 177,503C199,539 223,571 250,599C276,627 309,652 350,673C390,694 430,705 471,705C520,705 565,698 605,684C644,669 681,654 715,637C751,619 784,603 814,590C843,576 876,569 913,569C960,569 998,585 1028,618C1057,651 1084,693 1109,745z"/>
<glyph unicode="&#xA3;" horiz-adv-x="1274" d="M299,177l866,0l0,-177l-1048,0l0,148C163,163 201,188 230,221C259,254 281,293 296,337C311,378 321,423 327,472C333,521 336,570 336,621l-167,0l0,96l167,0C334,744 331,784 327,837C323,890 321,934 321,969C321,1110 363,1227 448,1319C532,1410 641,1456 776,1456C835,1456 886,1447 931,1429C975,1411 1011,1389 1040,1362C1069,1334 1092,1303 1108,1268C1124,1233 1132,1197 1132,1160C1132,1127 1124,1098 1108,1073C1092,1048 1065,1035 1028,1035C989,1035 958,1045 935,1065C912,1084 901,1107 901,1132C901,1161 905,1192 914,1223C922,1254 928,1277 931,1292C922,1311 904,1329 876,1348C848,1367 813,1376 772,1376C749,1376 724,1373 697,1366C670,1359 642,1345 615,1323C589,1302 568,1271 551,1232C534,1193 526,1143 526,1083C526,1040 528,981 531,906C534,830 536,767 536,717l396,0l0,-96l-396,0C536,530 516,448 476,374C436,299 377,237 299,186z"/>
<glyph unicode="&#x2022;" horiz-adv-x="804" d="M666,599C666,526 640,464 589,413C537,361 475,335 402,335C329,335 267,361 216,413C164,464 138,526 138,599C138,672 164,734 216,786C267,837 329,863 402,863C475,863 537,837 589,786C640,734 666,672 666,599z"/>
<glyph unicode="&#xAE;" horiz-adv-x="1929" d="M1849,602C1849,358 1763,150 1590,-22C1417,-195 1208,-281 964,-281C720,-281 512,-195 339,-22C166,150 80,358 80,602C80,846 166,1054 339,1227C512,1399 720,1485 964,1485C1208,1485 1417,1399 1590,1227C1763,1054 1849,846 1849,602M1750,602C1750,819 1674,1005 1521,1162C1368,1319 1183,1397 964,1397C745,1397 560,1319 408,1162C255,1005 179,819 179,602C179,385 255,199 408,42C560,-115 745,-193 964,-193C1183,-193 1368,-115 1521,42C1674,199 1750,385 1750,602M1542,145l-287,0C1192,234 1137,309 1090,369C1043,428 996,488 947,549l-105,0l0,-262C842,272 845,259 851,247C856,234 867,225 884,219C891,216 907,213 930,210C953,206 971,204 983,203l0,-58l-439,0l0,58C556,204 572,206 593,209C614,212 629,215 639,219C654,225 664,234 671,245C677,256 680,270 680,287l0,642C680,945 678,959 673,971C668,982 657,991 639,997C625,1002 609,1006 591,1010C573,1013 557,1016 544,1017l0,58l492,0C1073,1075 1110,1071 1146,1063C1182,1055 1215,1042 1244,1025C1273,1008 1296,985 1314,957C1332,928 1341,894 1341,854C1341,781 1321,724 1282,683C1242,642 1183,610 1106,589C1160,524 1206,468 1243,423C1280,377 1313,336 1342,299C1361,276 1379,258 1397,247C1415,236 1432,227 1449,222C1462,217 1478,213 1497,210C1516,206 1531,204 1542,203M1155,834C1155,889 1138,931 1105,960C1072,989 1023,1003 958,1003l-116,0l0,-378l87,0C998,625 1053,643 1094,680C1135,717 1155,768 1155,834z"/>
<glyph unicode="&#xA9;" horiz-adv-x="1929" d="M1849,602C1849,358 1763,150 1590,-22C1417,-195 1208,-281 964,-281C720,-281 512,-195 339,-22C166,150 80,358 80,602C80,846 166,1054 339,1227C512,1399 720,1485 964,1485C1208,1485 1417,1399 1590,1227C1763,1054 1849,846 1849,602M1750,602C1750,819 1674,1005 1521,1162C1368,1319 1183,1397 964,1397C745,1397 560,1319 408,1162C255,1005 179,819 179,602C179,385 255,199 408,42C560,-115 745,-193 964,-193C1183,-193 1368,-115 1521,42C1674,199 1750,385 1750,602M1375,404C1361,369 1343,334 1320,298C1297,262 1270,231 1239,205C1204,176 1167,153 1128,136C1089,119 1040,111 982,111C911,111 845,122 785,144C724,166 672,198 628,241C585,283 551,334 528,393C504,452 492,519 492,592C492,662 505,727 530,788C555,849 591,902 638,948C683,992 738,1027 803,1053C868,1079 937,1092 1011,1092C1050,1092 1091,1085 1134,1072C1177,1059 1209,1044 1230,1028l45,66l59,0l5,-363l-54,0C1272,771 1258,807 1244,840C1229,872 1209,902 1184,931C1161,958 1132,979 1098,995C1064,1011 1022,1019 972,1019C892,1019 827,982 776,908C725,833 699,731 699,602C699,480 730,384 792,313C853,242 930,206 1023,206C1090,206 1148,224 1195,260C1242,295 1283,352 1317,429z"/>
<glyph unicode="&#x2122;" horiz-adv-x="1930" d="M1856,733l-346,0l0,52C1521,785 1536,786 1556,788C1575,789 1588,792 1595,795C1606,802 1613,808 1617,813C1621,818 1623,825 1623,835l0,451l-15,0l-244,-531l-32,0l-237,541l-15,0l0,-364C1080,897 1082,870 1087,852C1091,833 1098,819 1109,810C1118,805 1132,799 1153,794C1174,788 1192,785 1207,785l0,-52l-315,0l0,50C903,785 919,788 940,791C961,794 976,799 987,806C998,815 1006,827 1010,842C1014,857 1016,886 1016,928l0,347C1016,1291 1014,1304 1009,1315C1004,1326 996,1335 987,1343C977,1351 965,1357 950,1361C935,1364 917,1367 898,1368l0,51l278,0l211,-472l176,387C1570,1351 1576,1367 1580,1382C1583,1397 1586,1409 1588,1419l268,0l0,-51C1845,1367 1830,1366 1813,1363C1795,1360 1782,1358 1775,1355C1765,1353 1759,1348 1756,1341C1753,1334 1752,1326 1752,1319l0,-484C1752,826 1753,818 1756,813C1759,807 1765,802 1775,797C1782,795 1793,793 1810,790C1826,787 1841,785 1856,785M776,1221l-48,0C721,1243 708,1271 688,1304C667,1337 647,1355 628,1359C613,1360 599,1361 585,1362C571,1363 559,1363 550,1363l-49,0l0,-524C501,830 503,822 506,816C509,809 515,804 526,799C533,797 545,794 563,791C581,787 598,785 613,785l0,-52l-353,0l0,52C273,785 290,786 309,789C328,791 341,793 347,795C357,798 364,804 367,811C370,818 372,826 372,833l0,530l-49,0C313,1363 300,1363 283,1362C266,1361 254,1360 245,1359C224,1356 204,1337 185,1304C165,1270 152,1242 145,1221l-48,0l0,198l679,0z"/>
<glyph unicode="&#x201C;" horiz-adv-x="840" d="M375,1466C344,1448 318,1433 299,1420C280,1407 260,1389 240,1368C221,1348 207,1327 197,1305C187,1283 180,1255 176,1220l48,0C265,1220 298,1210 322,1190C345,1169 357,1139 357,1100C357,1072 347,1046 326,1022C305,997 276,985 239,985C182,985 141,1004 116,1042C91,1079 79,1129 79,1190C79,1233 88,1273 107,1309C126,1344 148,1376 175,1404C202,1433 231,1457 262,1477C293,1497 318,1513 339,1526M745,1466C714,1448 688,1433 669,1420C650,1407 630,1389 610,1368C591,1347 576,1326 567,1305C557,1283 550,1255 546,1220l48,0C635,1220 668,1210 692,1190C715,1169 727,1139 727,1100C727,1072 717,1046 696,1022C675,997 646,985 609,985C552,985 511,1004 486,1042C461,1079 449,1129 449,1190C449,1233 458,1273 477,1309C496,1344 518,1376 545,1404C572,1433 601,1457 632,1477C663,1497 688,1513 709,1526z"/>
<glyph unicode="&#x201D;" horiz-adv-x="840" d="M391,1325C391,1281 381,1241 362,1205C343,1168 320,1137 294,1110C267,1083 238,1058 206,1037C174,1015 148,999 129,989l-34,59C122,1064 149,1081 174,1098C199,1115 218,1131 231,1146C249,1166 263,1187 274,1209C285,1230 291,1259 294,1294l-48,0C204,1294 171,1305 148,1326C125,1347 113,1377 113,1415C113,1442 124,1468 145,1493C166,1517 195,1529 232,1529C289,1529 329,1510 354,1473C379,1435 391,1386 391,1325M761,1325C761,1281 751,1241 732,1205C713,1168 690,1137 664,1110C637,1083 608,1058 576,1037C544,1015 518,999 499,989l-34,59C492,1064 519,1081 544,1098C569,1115 588,1131 601,1146C619,1166 633,1187 644,1209C655,1230 661,1259 664,1294l-48,0C574,1294 541,1305 518,1326C495,1347 483,1377 483,1415C483,1442 494,1468 515,1493C536,1517 565,1529 602,1529C659,1529 699,1510 724,1473C749,1435 761,1386 761,1325z"/>
<glyph unicode="&#x2018;" horiz-adv-x="464" d="M372,1466C341,1448 315,1433 296,1420C277,1407 257,1389 237,1368C218,1349 204,1328 194,1306C184,1283 177,1255 173,1220l48,0C262,1220 295,1210 319,1190C342,1169 354,1139 354,1100C354,1072 344,1046 323,1022C302,997 273,985 236,985C179,985 138,1004 113,1042C88,1079 76,1129 76,1190C76,1233 85,1273 104,1309C123,1344 145,1376 172,1404C199,1433 228,1457 259,1477C290,1497 315,1513 336,1526z"/>
<glyph unicode="&#x2019;" horiz-adv-x="464" d="M388,1325C388,1281 379,1241 360,1205C341,1168 318,1137 291,1110C264,1083 235,1058 203,1037C171,1015 145,999 126,989l-34,59C119,1064 146,1081 171,1098C196,1115 215,1131 228,1146C246,1166 260,1187 271,1209C282,1230 288,1259 291,1294l-48,0C201,1294 168,1305 145,1326C122,1347 110,1377 110,1415C110,1442 121,1468 142,1493C163,1517 192,1529 229,1529C286,1529 326,1510 351,1473C376,1435 388,1386 388,1325z"/>
<glyph unicode="&#x20AC;" horiz-adv-x="1315" d="M1289,359C1232,218 1157,118 1066,58C975,-3 864,-33 733,-33C648,-33 570,-17 497,16C424,49 357,97 298,160C257,203 220,259 189,326C157,393 136,461 127,530l-127,0l36,96l81,0C116,643 115,655 115,661C115,666 115,678 115,696C115,707 116,724 117,747C118,770 119,787 120,800l-120,0l36,96l97,0C146,958 165,1019 192,1078C219,1137 254,1191 299,1242C358,1309 427,1361 506,1397C584,1432 670,1450 764,1450C834,1450 896,1441 949,1424C1002,1407 1055,1382 1106,1351l41,68l80,0l9,-506l-82,0C1143,962 1127,1016 1106,1074C1085,1131 1060,1180 1031,1220C999,1265 963,1301 922,1327C881,1352 833,1365 776,1365C711,1365 653,1351 602,1322C551,1293 505,1251 466,1194C437,1152 415,1106 400,1056C384,1006 372,953 365,896l394,0l-36,-96l-367,0C355,791 355,775 355,754C354,733 354,718 354,710C354,689 354,673 355,662C355,651 355,639 356,626l301,0l-36,-96l-255,0C375,475 389,426 406,381C423,336 445,295 471,260C513,203 563,159 621,128C678,96 740,80 807,80C861,80 909,89 951,106C993,123 1031,145 1064,173C1097,202 1127,236 1152,273C1177,310 1198,351 1214,395z"/>
</font>
</svg>
